umjammer です、 VP8 オープンソース化されましたね。これから Web 動画の覇権はどうなっていくのでしょうか?私は以前動画関連の仕事をしていたときライセンス関係で苦労したのでライセンスフリーなコーデックは大歓迎です。 さて、発表即日なのにもうインストールしている人がいたよ。こちらを参照してください。 で、私もインストールしてみました。以下は h.264 と適当に比較してみた結果です。 サンプルはここからお借りしました。 WebM はパラメータなんて使わないよとのことなので

$ ffmpeg -i BD_Video.m2ts -s 480x272 sample_vp8.webm

h.264 のエンコーディングパラメータはここの Single-Pass Constant Rate Factor (CRF) Example を参考にしました。

$ ffmpeg -i BD_Video.m2ts -s 480x272 -acodec libfaac -ab 96k -vcodec libx264 -vpre slow -crf 22 sample_h264.mp4

結果です、WebM に bps が出ていないのではっきりと比較出来ていませんがファイルサイズで見ると圧縮率はあんまり変わっていないようです。

$ ls
-rw-r--r-- 1 foo staff 66834432 2010-05-20 20:12 BD_Video.m2ts
-rw-r--r-- 1 foo staff  1674461 2010-05-20 20:26 sample_h264.mp4
-rw-r--r-- 1 foo staff  1519316 2010-05-20 20:17 sample_vp8.webm

$ ffmpeg -i sample_h264.mp4 
FFmpeg version SVN-r23201, Copyright (c) 2000-2010 the FFmpeg developers
 :
  Duration: 00:00:15.51, start: 0.000000, bitrate: 863 kb/s
    Stream #0.0(und): Video: h264, yuv420p, 480x272 [PAR 136:135 DAR 16:9], 761 kb/s, PAR 161:160 DAR 483:272, 23.98 fps, 23.98 tbr, 24k tbn, 47.95 tbc
    Stream #0.1(und): Audio: aac, 48000 Hz, stereo, s16, 95 kb/s
 :

$ ffmpeg -i sample_vp8.webm 
FFmpeg version SVN-r23201, Copyright (c) 2000-2010 the FFmpeg developers
 :
  Duration: 00:00:15.55, start: 0.000000, bitrate: N/A
    Stream #0.0: Video: libvpx_vp8, yuv420p, 480x272, PAR 161:160 DAR 483:272, 23.98 tbr, 1k tbn, 1k tbc
    Stream #0.1: Audio: vorbis, 48000 Hz, stereo, s16
 :

画質は iPhone 用のサイズなのでよくわかりませんでした... ポーズしてみると若干 h.264 の方がキレイなんじゃないの?圧倒的な VP8 勝利を期待したのですが...動画に詳しい方ツッコミよろしくです。
VP8


h.264